#TITLE:Shall We Dance;
#SUBTITLE:;
#ARTIST:Bloodlined Calligraphy;
#TITLETRANSLIT:;
#SUBTITLETRANSLIT:;
#ARTISTTRANSLIT:;
#CREDIT:;
#BANNER:Bloodlined Calligraphy banner.jpg;
#BACKGROUND:Dancing.jpg;
#LYRICSPATH:;
#CDTITLE:;
#MUSIC:Shall We Dance.mp3;
#OFFSET:0.000;
#SAMPLESTART:100.000;
#SAMPLELENGTH:12.000;
#SELECTABLE:YES;
#BPMS:0.000=274.501,5.333=279.001,67.667=288.001,172.333=261.001,361.667=282.001,493.667=181.001,507.000=227.001,507.500=235.441,508.000=254.001,508.500=277.000;
#STOPS:4.000=0.040
,21.000=0.040
,27.000=0.040
,28.667=0.020
,30.333=0.020
,32.000=0.020
,33.333=0.020
,34.667=0.020
,178.313=0.174
,180.333=0.100
,306.333=0.040
;
#BGCHANGES:;
// cache tags:
#FIRSTBEAT:2.333;
#LASTBEAT:699.667;
#SONGFILENAME:Songs/nhac/Shall We Dance/Shall We Dance.sm;
#HASMUSIC:1;
#HASBANNER:1;
#MUSICLENGTH:155.358;
// end cache tags

//---------------dance-single - ----------------
#NOTES:
     dance-single:
     :
     Challenge:
     11:
     0.680,0.901,0.019,0.206,1.000,705.000,3.000,32.000,0.000,0.000:
0000
0000
0000
0000
0000
0000
0000
1000
0000
0000
0100
0000
,
1000
0000
0000
0000
0001
0000
0010
0000
0001
0000
0010
0000
,
0001
0000
0100
0000
1000
0000
0010
0000
0100
0000
1000
0000
,
0010
0000
0100
0000
0001
0000
0010
0000
0001
0000
0100
0000
,
0010
0000
0001
1000
0000
0000
0100
0000
0010
0000
0000
0000
,
0000
1000
0000
0000
,
1000
0000
0000
0000
1000
0000
0100
0000
0000
2001
0000
0000
,
0000
0000
0001
0000
0000
0000
0000
0001
0000
0000
0000
0000
,
0001
0000
0000
0000
0001
0000
0000
0000
3001
0000
0000
0000
,
0001
0000
0010
0000
0001
0000
0000
0000
0000
0000
0000
0000
,
0000
0000
0000
0000
0000
0000
0010
0000
1000
0000
0100
0000
,
1000
0000
0010
0000
0100
0000
0010
0000
0000
0001
0000
1000
,
0000
0000
0100
0000
0001
0000
0010
0000
0100
0000
1000
0000
,
0001
0000
1000
0000
0010
0000
0100
0000
0001
0000
0000
0010
,
0000
1000
0000
0010
0000
0001
0000
0010
0000
0100
0000
1000
,
0000
0100
0000
0010
0001
0010
0000
0100
0000
0000
0000
0000
,
0000
1000
0000
0000
0000
0000
0000
0000
0000
0000
0000
1000
,
0000
0100
0000
0000
1000
0000
0010
0000
0100
0000
0001
0000
,
0010
0000
0100
0000
1000
0000
0010
0000
0000
0000
0000
0010
,
0000
0000
1000
0000
0000
0000
0000
0100
0000
0000
0000
0000
,
0000
0010
0000
0100
0000
1000
0000
0010
0000
0100
0000
0001
,
0000
0010
0000
0100
0000
1000
0000
0010
0000
0100
0000
0001
,
0010
0001
0000
0010
0100
1000
0000
0000
0000
0000
0000
0100
,
0000
1000
0000
0100
0000
0010
0000
0001
0000
0010
0000
0000
,
0100
0000
1000
0100
1000
0000
0010
0000
0100
0000
0001
0000
,
0100
0010
0000
0000
0000
0000
0000
0000
0000
0000
1000
0000
,
0100
0010
0001
0000
0010
0000
0000
0000
0000
0000
0000
0000
,
0100
0000
0000
0000
,
0000
1000
0000
0100
0000
0010
0001
0000
0020
0000
0000
0000
,
0000
0000
0000
0000
0000
0000
0000
0000
0030
0000
1000
0000
,
0100
0000
1000
0000
0000
0002
0000
0000
0000
0000
0000
0000
,
0003
1000
0000
0010
0000
0100
0000
0002
0000
0000
0000
0100
,
0003
0000
0000
0000
0000
0000
0000
0000
1000
0000
0000
0000
,
0010
1000
0010
0100
,
0001
0000
0000
0000
0000
1000
0000
0000
0100
0000
0000
0010
,
0000
0000
0001
0000
0010
0000
0000
0000
0000
0000
0000
0000
,
1000
0000
0100
0000
1000
0000
0010
0100
0010
0000
0001
0000
,
0100
0000
1000
0000
0010
0000
0100
0000
0001
0000
0000
0000
,
0000
0000
0100
0000
0000
0001
0000
0000
0100
0000
0000
0000
,
0000
0000
0000
0000
0000
1000
0000
0000
0000
0000
0100
0000
,
0000
1000
0000
0000
0100
0000
0010
0000
0000
0000
0000
0002
,
0000
0000
0000
0000
0000
0000
0000
0003
0000
0000
0000
0000
,
0000
0000
0000
0000
,
0000
1100
0000
0000
0000
1000
0000
0010
0000
0100
0000
0000
,
0000
0000
0000
0000
0000
0000
0000
0000
0000
0000
0000
0000
0010
0000
0000
0000
0000
0000
0000
0000
0100
0000
0000
0000
0000
0000
0000
1000
0000
0000
0000
0000
0000
0000
0000
0000
0000
0000
0000
0000
0100
0000
0000
0000
0000
0000
0000
0000
,
0000
1000
0000
0000
0000
0000
0000
0000
0000
0000
0000
0000
,
1000
0000
0100
0000
0000
0010
0000
0001
0000
0010
0000
0000
,
0000
0000
0100
0000
1000
0000
0100
0000
0010
0000
0001
0010
,
0001
0000
0010
0000
0100
0000
1000
0000
0010
0000
0100
0001
,
0100
0000
1000
0000
0010
0000
0100
0000
0001
0000
0010
0100
,
0010
0000
0001
0000
0100
0000
0000
0000
0000
0000
1000
0000
,
0010
0000
1000
0000
0100
0000
0000
1000
0000
0010
0000
0001
,
0000
0000
0000
0000
1000
0000
0100
0000
0010
0001
0010
0001
,
0000
0010
0000
1000
0000
0100
0000
0010
0000
1000
0000
0000
,
0001
0000
1000
0000
0001
0010
0100
0000
0001
0010
0100
0000
,
1000
0000
0100
0000
0020
0030
0001
0000
0100
0000
0010
0000
,
1000
0000
0010
0000
0100
0000
0010
0000
0001
0000
0010
0000
,
1000
0000
0100
0000
0000
0001
0000
0100
0000
1000
0000
0000
,
0010
0000
0100
0000
1000
0000
0000
0001
0000
0100
0000
0010
,
0000
0000
0000
0000
0000
1000
0000
0010
0000
0100
0000
0010
,
0000
0001
0000
1000
0000
0000
0000
0000
0100
0000
1000
0100
,
0000
0010
0001
0010
0001
0000
0000
0000
0000
0000
2000
0000
,
0000
0000
0000
0000
0000
0000
0000
0000
0000
0000
0000
0010
,
0000
0000
0001
0000
0000
3000
0000
0100
0000
0010
0000
1000
,
0000
0000
0010
0000
0000
0000
1000
0000
0020
0000
0000
0000
,
0000
0000
0000
0000
0030
0000
0000
0000
0000
1000
0000
0100
,
0000
0000
0010
0000
0001
0000
0000
1000
0000
0100
0000
1000
,
0000
0000
0000
0000
0000
0000
0000
0000
0020
0000
0000
0000
,
0000
0000
0030
0000
0002
0000
0000
0000
0000
0000
0000
0000
,
0000
0000
0000
0000
0000
0000
0000
0000
0000
0000
0000
0003
,
0000
0000
1000
0000
0100
0000
1000
0000
0010
0000
0100
0000
,
0001
0000
0100
0000
0010
0000
0001
0000
1000
0000
0010
0000
,
0100
0000
0001
0000
0100
0010
0001
0010
0000
0100
0000
1000
,
0000
0010
0000
0100
0000
0001
0000
0010
0000
0100
0000
1000
,
0000
0010
0000
0100
0000
0010
0000
1000
0100
0010
0001
0000
,
0000
0000
0000
0000
0000
0001
0000
0010
0000
0001
0000
1000
,
0000
0000
0001
0000
0000
0000
0000
1000
0000
0000
0000
0000
,
0000
0000
1000
0100
0010
0001
0010
0100
0000
0000
0000
1000
,
0100
0000
0010
0000
0001
0000
0010
0000
1000
0000
0000
0000
,
0000
0000
1000
0000
0000
0100
0010
0001
0010
0100
0000
1000
,
0000
0000
0000
0000
0000
0000
0000
0010
0000
0100
0000
0010
,
0000
0001
0000
0100
0000
1000
0000
0100
0000
0001
0000
0100
,
0000
1000
0000
0100
0000
0001
0000
0010
0000
1000
0000
0010
,
0000
0002
0000
0000
0000
0000
0000
0000
0000
0000
0000
0000
,
0000
0000
0000
0000
0000
0003
0000
1000
0000
0000
0100
0000
,
0001
0000
0010
0000
1000
0000
0010
0000
0100
0000
0001
0000
,
0010
0000
0001
0000
0010
0000
0100
0000
0010
0000
0100
0000
,
1000
0000
0001
0000
0000
0000
0000
0000
0000
0000
0000
1000
,
0100
0010
0001
0010
0000
0000
0000
0000
0100
0000
0000
0000
,
1000
0000
0000
0001
0000
1000
0000
0010
0000
0100
0000
1000
,
0000
0000
0000
0000
0000
0010
0000
0000
0001
0000
0010
0000
,
1000
0000
0010
0000
0100
0000
0001
0000
0010
0000
0001
0000
,
0010
0000
0100
0000
1000
0000
0010
0000
0100
0000
0010
0000
,
0000
0000
0100
0000
0010
0000
0001
0000
0100
0000
0000
0000
,
0000
0010
0000
0000
0000
0000
1000
0000
0010
0000
0001
0000
,
0100
0000
1000
0000
0000
0000
0000
0000
0100
0010
0001
0000
,
0100
0000
0000
0000
1000
0000
0000
0000
0010
0000
0000
0000
,
0000
1000
0000
0000
0100
0010
1000
0000
0001
0000
0100
0000
,
0000
0000
0000
1000
0000
0000
0000
0100
0010
0001
0000
0100
,
0000
0000
0000
0000
0000
0000
0000
0000
0000
0000
0000
0000
0000
0000
0000
0000
0000
0000
0000
0000
0000
0000
0000
0000
0000
0000
0000
0000
0000
0000
0000
0000
0001
0000
0000
0000
0000
0000
0000
0000
0000
0000
0000
0000
0000
0000
0000
0000
0000
0000
0000
0000
0000
0000
0000
0000
0000
0000
0000
0000
0000
0000
0000
0000
0000
0000
0000
0000
0000
0000
0000
0000
0000
0000
0000
0000
0000
0000
0000
0000
0000
0000
0000
0000
0000
0000
0000
0000
0000
0000
0000
0000
0000
0000
0000
0000
0000
0000
0000
0000
0000
0000
0000
0000
0000
0000
0000
0000
0000
1000
0000
0000
0000
0000
0000
0000
0000
0000
0000
0000
0000
0000
0000
0000
0000
0000
0000
0000
0000
0000
0000
0000
0000
0000
0000
0000
0000
0000
0000
0000
0000
0000
0000
0000
0100
0000
0000
0000
0000
0000
0000
0000
0000
0000
0000
0000
0000
0000
0000
0000
0010
0000
0000
0000
0000
0000
0000
0000
0000
0000
0000
0000
0000
0000
0000
0000
0001
0000
0000
0000
0000
0000
0000
0000
0000
0000
0000
0000
0000
0000
0000
0000
,
0010
0100
1000
0000
0000
0000
0000
0010
0000
1000
0000
0010
,
0000
1000
0000
0001
0000
0000
0000
0000
0010
0000
0000
0100
,
0000
0000
0000
0000
0000
1000
0100
1000
0100
0010
0000
0000
,
0000
0000
0100
0000
0000
1000
0100
0000
0010
0000
0001
0000
,
1000
0000
0010
0000
0100
0000
0001
0000
0100
0000
0010
0000
,
0000
0000
1000
0000
0000
0010
0000
0100
0000
0001
0000
0000
,
0000
0010
0000
0001
0000
0100
0000
1000
0000
0010
0100
0000
,
0000
0000
1000
0000
0010
0000
0100
0000
0001
0000
0010
0001
,
0000
0000
0100
0000
0000
0000
0000
0010
0000
0000
0001
0000
,
0100
0000
0000
0000
0010
0000
0000
0000
0100
0000
0010
0000
,
0001
0000
0010
0000
1000
0100
0000
0000
1000
0000
0000
0000
,
0000
0000
1000
0000
0100
0000
0010
0000
0001
0010
0000
0000
,
0000
0000
0100
0000
0010
0000
0001
0000
1000
0000
0010
0000
,
0100
0000
0001
0000
0010
0000
0000
0000
1000
0000
0000
0010
,
0000
0100
0000
0001
0000
0100
0000
1000
0000
0010
0100
0001
,
0000
0000
0000
0000
1000
0000
0100
0000
0010
0000
0001
0000
,
0000
1000
0000
0000
0000
0000
0000
0000
0010
0000
0001
0000
,
0100
0000
1000
0000
0010
0000
0000
0100
0000
0010
0000
0000
,
0001
0000
0000
0000
0000
0100
0000
0000
0000
0010
0000
0000
,
0000
1000
0000
0100
0000
0010
0000
0001
0000
0010
0000
0001
,
0000
0100
0000
0000
0000
0010
0000
0000
1000
0000
0100
0000
,
0000
0000
0010
0000
0000
0000
0000
0000
0001
0000
0000
0000
,
0100
0000
0000
0000
0000
1000
0000
0100
0000
0010
0000
0001
,
0000
0010
0000
0100
0000
2000
0000
0000
0000
0000
0000
0000
,
0100
0000
0000
0000
0000
3100
0000
0000
0000
0000
0000
0000
,
0000
0200
0000
0000
0000
0000
0000
0010
0000
0000
0000
0000
,
0310
0000
0000
0002
,
0000
0000
0000
0003
0000
0000
0010
0000
0000
0000
0100
0000
0000
0000
1000
0000
0000
0000
0100
0000
0000
0000
0000
0000
,
0020
0000
0000
0000
0030
0000
0000
0100
0000
0010
0000
1000
,
0000
0000
0100
0000
0001
0000
0010
0000
1000
0000
0000
0020
,
0000
0000
0000
0000
0000
0000
0030
0000
0000
1000
0000
0001
,
0000
0200
0300
0010
0000
1000
0000
0010
0000
0000
0000
0200
,
0000
0000
0000
0000
0000
0300
0000
0000
0010
0000
0100
0000
,
1000
0000
0000
0010
0000
0100
0000
0001
0000
0000
0000
0010
,
0000
0000
0000
0000
1000
0000
0100
0000
0010
0000
0100
0000
,
1000
0000
0001
0000
0010
0000
0100
0000
0000
0000
0000
1000
,
0000
0000
0000
0100
0000
1000
0000
0010
0000
0100
0000
0000
,
0001
0000
0000
0010
0000
0100
0000
1000
0000
0010
0000
0000
,
0000
0001
0010
0100
1000
0000
0000
0000
0000
0000
0100
0000
,
0010
0000
0001
0000
0100
0000
0000
0000
0000
0000
0000
0000
,
0000
1000
0000
0010
0000
0100
0000
0010
0000
0001
0000
1000
,
0000
0010
0000
0000
0000
0100
0000
0000
0000
0000
0000
0010
,
0000
0000
1000
0000
0100
0000
0001
0000
0010
0000
1000
0000
,
0100
0000
0001
0000
0000
0000
0000
2000
0000
3000
0000
0000
,
0000
1000
0000
0010
0000
0100
0000
0000
0000
0000
0000
0200
,
0000
0000
0000
0300
0000
0000
0000
0000
0010
0000
0001
0000
,
0100
1000
0000
0200
,
0000
0000
0000
0300
0000
1000
0000
0000
0000
0010
0000
0001
,
0000
0100
0000
0010
0000
1000
0000
0001
0000
0000
0000
0000
,
0000
0000
0000
1000
0000
0010
0000
0100
0000
0000
0002
0000
,
0000
0000
1003
0000
0100
0000
0000
0000
0020
0000
0000
0000
,
0030
1000
0000
0000
0000
0000
0000
0100
0000
0000
0000
0000
,
0000
0000
0010
0000
0000
0001
0000
0000
0000
0000
0000
0000
,
0000
0100
0000
1000
0000
0000
0010
0000
0000
0100
0000
0000
,
0000
0000
0000
0000
0000
0001
0000
0000
1000
0000
0000
0000
,
0010
0000
0000
0001
0000
0000
0000
0000
1000
0000
0000
0000
,
0000
0000
0000
0000
0200
0000
0000
0300
0000
0000
0000
0000
,
0000
0010
0000
0000
0001
0000
0000
0100
0000
0000
1000
0000
,
0010
0000
0100
0000
0000
0000
0000
0000
0100
0000
0000
0010
,
0000
0000
0000
0002
0000
0000
0000
0000
1003
0000
0000
0000
,
0000
0000
0000
0000
0000
0000
0000
0000
1000
0000
0100
0000
,
0010
0000
0001
0000
,
0000
0000
1000
0000
0000
0000
0000
0000
0100
0000
0000
0000
,
0000
0020
0000
0000
0000
0000
0000
0000
0000
0000
0000
0000
,
0000
0030
0000
0000
1000
0000
0000
0010
0000
0000
0200
0000
,
0000
0000
0000
0000
0300
0010
0000
0000
0100
0000
0000
0000
,
0000
1000
0000
0010
0000
0100
0000
0001
0000
0010
0000
0000
,
1000
0000
0000
0000
0000
0200
0000
0000
0000
0300
0000
0000
,
0000
1000
0000
0010
0000
0100
0000
0001
0000
0010
0000
0000
,
0002
0000
0000
0000
0000
0000
0003
0000
0010
0000
0001
0000
,
0100
0000
1000
0000
0010
0000
0100
0000
0000
0000
0000
0000
,
0020
0000
0030
0000
0000
0000
0000
0000
1000
0000
0100
0000
,
0010
0000
0001
0000
0010
0000
1000
0000
0010
0000
0000
0000
,
0000
0000
0022
0000
0000
0000
0000
0000
0000
0000
0000
0000
,
0000
0000
0000
0000
0000
0000
0000
0000
0000
0000
0000
0033
;
